Přidat otázku mezi oblíbenéZasílat nové odpovědi e-mailem Prosím o pomoc s iPadem

Prosím o pomoc. Zakoupen byl tablet Apple iPad a dost důležité jsou pro majitele přenosy bohoslužeb z adresy https://prenosy.svtomas.net/archiv (jak archiv, tak živé přenosy). Bohužel z mně neznámého důvodu to nejde. Zkoušel jsem operu, firefox, safari, dolphin.... a na žádném to nejde. Pořád to píše "Váš prohlížeč nepodporuje formát videa." Co s tím? Jedná se o tento https://www.alza.cz/ipad-wifi-vesmirne-sedy-2017?dq=4827702

Předmět Autor Datum
na iPade (resp. vseobecne iOS) je uplne jedno aky mate prehliadac, vsetky totiz su len "nadstavbou"…
wam_Spider007 13.05.2018 15:40
wam_Spider007
Tak to je dobrý shit ten ipad :(
Mára7888 13.05.2018 15:42
Mára7888
a nebude skor shit ta stranka? nemam ipad, mam iPhone a uz davno sa mi nestalo, ze by mi na nejakej…
wam_Spider007 13.05.2018 15:52
wam_Spider007
Kolegovi v práci nejde na 6S online přenos hokeje (ČT Sport), takže ta podpora web playerů na jabkác…
Grille 13.05.2018 16:16
Grille
tvoje dedukcne schopnosti su obdivuhodne :-D
wam_Spider007 13.05.2018 18:48
wam_Spider007
no jasně. Co jablesráč nepodporuje, to je nestandard. :-D Kvadratura kruhu hadra. poslední
touchwood 14.05.2018 10:58
touchwood
ježiši kriste neumíš číst? https://prenosy.svtomas.net/nastaveni-prohlizece Obsah archivu by měl…
počítačem přemýšlet 13.05.2018 16:21
počítačem přemýšlet
pořád to nejde, tohle jsem už zkoušel taky. Kliknu, začne se načítat a ať to nechám dlouho jak chci,…
Mára7888 13.05.2018 22:51
Mára7888
stiahni si zo stránok adobe flash player pre ios,dotyčná stránka má k dispozícii videá,ktoré ho vyža…
audax 14.05.2018 08:01
audax
adobe flash player pre ios ::)::)::)::)::)::) nic take ako flash player pre iOS neexistuje. a keby…
cigan 14.05.2018 10:30
cigan

ježiši kriste neumíš číst?

https://prenosy.svtomas.net/nastaveni-prohlizece

Obsah archivu by měl jít přehrát na všech typech zařízení. Pokud nejde, je pravděpodobně nějaké jiná chyba v nastavení. Panebože jaká chyba v nastavení, co pak se někde něco šteluje u všech svatých?

Přímý přenos lze přehrát na těchto typech zařízeních:

Android (telefony, tablety)
Apple (iphone, ipad)

Jistě sis všiml, že na nějaké stránce (například https://prenosy.svtomas.net/?playfile=/mp4/2018-04-29-Sun-missa07.45.mp4)
je v url napsáno https://prenosy.svtomas.net/?playfile=/mp4/2018-04-29-Sun-missa07.45.mp4
a skutečně, dole je psáno písmem svatým
Stáhntí souboru (k čertu s gramatikou)

obrazzvuk
což vskutku vede na https://prenosy.svtomas.net/mp4/2018-04-29-Sun-missa07.45.mp4
tento soubor je
(což prubne ffplay)
ffplay 'https://prenosy.svtomas.net/mp4/2018-04-29-Sun-missa07.45.mp4'


  Duration: 01:15:01.50, start: 0.000000, bitrate: 312 kb/s
    Stream #0:0(eng): Audio: aac (LC) (mp4a / 0x6134706D), 44100 Hz, stereo, fltp, 128 kb/s (default)
    Metadata:
      creation_time   : 2018-04-29T06:58:18.000000Z
      handler_name    : SoundHandler
    Stream #0:1(eng): Video: h264 (High) (avc1 / 0x31637661), yuv420p(tv, bt4...fault)
    Metadata:

naprosto běžný videosoubor....

Tak kSakru otevřit se ten soubor přes odkaz "obraz" (jak z toho papíru vidíš je to obraz a zvuk), ono streamovat obraz bez zvuku nemá smysl jaksi, ale zvuk samotný už smysl má

Takže prostě prostým duchem blahoslavení stačí kliknout na odkaz obraz a ípad by se o to měl postarat.
kámen

pořád to nejde, tohle jsem už zkoušel taky. Kliknu, začne se načítat a ať to nechám dlouho jak chci, a že máme tady dost rychlý internet na takovéhle věci, prostě nic nenaběhne, pořád je v panelu napsáno načítá se. Na všech jiných zařízení včetně 4 roky stařičkého zasekaného sračka huawei telefonu (který už tenkrát stál novej asi dva a půl litru) to jde bez problému.

zkoušel jsem pro jistotu i najít tuhle stránku na ipadu a zmáčkout přímo ten okaz co postuješ a stejná situace. ale díky za radu, kdyby tě napadlo ještě něco, byl bych fakt rád.

Zpět do poradny Odpovědět na původní otázku Nahoru